extratorrent - A Fan Made Alternative Login   |   Register
Important Information
Registrations are open now
-------------------------------------

Please click here to register with Extratorrent2 to recieve latest updates, add bookmarks and to post comments.

Friends
Friends

1) ProxyFix

Extratorrent2 > Categories > Movies > 18+ The Only Living Boy In New York 2018 Movies BRRip x264 5.1 with Sample ☻rDX☻ torrent


Browse Movies torrents

18+ The Only Living Boy In New York 2018 Movies BRRip x264 5.1 with Sample ☻rDX☻ torrent


The Only Living Boy in New York (2017)
Name: The Only Living Boy in New York
Released Year: 2017
Runtime: 89 mins
Gener: Drama
Director: Marc Webb
Country: USA
IMDB Rating: 6.3/10
Plot: Adrift in New York City, a recent college graduate's life is upended by his father's mistress.

Download torrent: Download 18+ The Only Living Boy In New York 2018 Movies BRRip x264 5.1 with Sample ☻rDX☻ torrent Magnet link Bookmark Torrent: 18+ The Only Living Boy In New York 2018 Movies BRRip x264 5.1 with Sample ☻rDX☻   18+ The Only Living Boy In New York 2018 Movies BRRip x264 5.1 with Sample ☻rDX☻ torrent
Info hash: A7BBE7DFE1DFCF27BFFB650C2FF7E35D9A87F0A7
Category: Categories > Movies
Trackers:
View all torrent trackers >
Health:
 seeds: 16 ,  leechers: 6 |  Update >
Torrent language: English English
Total Size: 848.9 MB
Files List:
2    View torrent files >
Uploader:
nehalpuja
Torrent added: August 24, 2018, 4:20 pm
IMDB: http://www.imdb.com/title/tt0460890
Users rating: ---, not rated. please login to rate.

Download 18+ The Only Living Boy In New York 2018 Movies BRRip x264 5.1 with Sample ☻rDX☻ torrent



Torrent Description

18+ The Only Living Boy In New York 2018 Movies BRRip x264 5.1 with Sample ☻rDX☻
===============================================================================================

SCREEN SHOTS:



or

http://iphonehosting.eu/2018/8/fixed/1.html

File size : 839 MiB
Duration : 1 h 28 min
Overall bit rate mode : Constant
Overall bit rate : 1 328 kb/s
Movie name : 18+ The Only Living Boy In New York 2018 Movies BRRip x264 5.1 ☻rDX☻

Video
ID : 2
Format : AVC
Format/Info : Advanced Video Codec
Format profile :
Format settings, CABAC : Yes
Format settings, ReFrames : 2 frames
Format settings, GOP : M=1, N=12
Codec ID : V_MPEG4/ISO/AVC
Duration : 1 h 28 min
Bit rate mode : Constant
Bit rate : 881 kb/s
Width : 720 pixels
Height : 392 pixels
Display aspect ratio : 1.85:1
Frame rate mode : Constant
Frame rate : 23.976 FPS
Color space : YUV
Chroma subsampling : 4:2:0
Bit depth : 8 bits
Scan type : Progressive
Bits/(Pixel*Frame) : 0.130
Stream size : 539 MiB (64%)
Title : ☻rDX☻
Default : Yes
Forced : No

Audio
ID : 1
Format : AC-3
Format/Info : Audio Coding 3
Mode extension : CM (complete main)
Format settings, Endianness : Big
Codec ID : A_AC3
Duration : 1 h 28 min
Bit rate mode : Constant
Bit rate : 448 kb/s
Channel(s) : 6 channels
Channel positions : Front: L C R, Side: L R, LFE
Sampling rate : 48.0 kHz
Frame rate : 31.250 FPS (1536 spf)
Bit depth : 16 bits
Compression mode : Lossy
Stream size : 283 MiB (34%)
Title : ☻rDX☻
Default : Yes
Forced : No



IMDB : http://www.imdb.com/title/tt0460890


Download 18+ The Only Living Boy In New York 2018 Movies BRRip x264 5.1 with Sample ☻rDX☻ torrent


Related Torrents


Comments   (please login to add your comment!)

shes gotta have it     budhia singh born to run 2016     freunde     pixar ita     csi s14e15     arella     gcb     husband wife     master thief edition     beautiful pussy     jules jordan charity crawford     2016 dts     now 93     inventory control     2017     anal reward     hardx xxx     12 feet     the special digital     hd rip     pimp my wife 4 2017     nas     battle     milfslikeitbig jasmine james     


Home - Browse Torrents

Made with love by an Extratorrent Fan!