extratorrent - A Fan Made Alternative Login   |   Register
Important Information
Registrations are open now
-------------------------------------

Please click here to register with Extratorrent2 to recieve latest updates, add bookmarks and to post comments.

Friends
Friends

1) ProxyFix

Extratorrent2 > Categories > Movies > Poor Boy 2018 Movies 720p HDRip x264 5.1 ESubs with Sample ☻rDX☻ torrent


Browse Movies torrents

Poor Boy 2018 Movies 720p HDRip x264 5.1 ESubs with Sample ☻rDX☻ torrent


Download torrent: Download Poor Boy 2018 Movies 720p HDRip x264 5.1 ESubs with Sample ☻rDX☻ torrent Magnet link Bookmark Torrent: Poor Boy 2018 Movies 720p HDRip x264 5.1 ESubs with Sample ☻rDX☻   Poor Boy 2018 Movies 720p HDRip x264 5.1 ESubs with Sample ☻rDX☻ torrent
Info hash: 95B559FA35A4B88DCCE893153A21FDC48E5DB02D
Category: Categories > Movies
Trackers:
View all torrent trackers >
Health:
 seeds: 4 ,  leechers: 5 |  Update >
Torrent language: English English
Total Size: 978.7 MB
Files List:
2    View torrent files >
Uploader:
nehalpuja
Torrent added: August 24, 2018, 3:47 pm
IMDB: http://www.imdb.com/title/tt7335008
Users rating: ---, not rated. please login to rate.

Download Poor Boy 2018 Movies 720p HDRip x264 5.1 ESubs with Sample ☻rDX☻ torrent



Torrent Description

Poor Boy 2018 Movies 720p HDRip x264 5.1 ESubs with Sample ☻rDX☻
===============================================================================================

SCREEN SHOTS:



or

http://iphonehosting.eu/2018/8/course/1.html

File size : 966 MiB
Duration : 1 h 44 min
Overall bit rate : 1 290 kb/s
Movie name : Poor Boy 2018 Movies 720p HDRip x264 5.1 ESubs ☻rDX☻

Video
ID : 3
Format : AVC
Format/Info : Advanced Video Codec
Format profile :
Format settings, CABAC : Yes
Format settings, ReFrames : 4 frames
Codec ID : V_MPEG4/ISO/AVC
Duration : 1 h 44 min
Bit rate : 905 kb/s
Width : 1 280 pixels
Height : 528 pixels
Display aspect ratio : 2.40:1
Original display aspect ratio : 2.40:1
Frame rate mode : Constant
Frame rate : 23.976 (24000/1001) FPS
Color space : YUV
Chroma subsampling : 4:2:0
Bit depth : 8 bits
Scan type : Progressive
Bits/(Pixel*Frame) : 0.056
Stream size : 660 MiB (68%)
Title : ☻rDX☻
Writing library : x264

Audio
ID : 1
Format : AC-3
Format/Info : Audio Coding 3
Mode extension : CM (complete main)
Format settings, Endianness : Big
Codec ID : A_AC3
Duration : 1 h 44 min
Bit rate mode : Constant
Bit rate : 384 kb/s
Channel(s) : 6 channels
Channel positions : Front: L C R, Side: L R, LFE
Sampling rate : 48.0 kHz
Frame rate : 31.250 FPS (1536 spf)
Bit depth : 16 bits
Compression mode : Lossy
Delay relative to video : -21 ms
Stream size : 288 MiB (30%)
Title : ☻rDX☻
Language : English
Default : No
Forced : No

Text
ID : 2
Format : UTF-8
Codec ID : S_TEXT/UTF8
Codec ID/Info : UTF-8 Plain Text
Title : ☻rDX☻
Language : English
Default : Yes
Forced : N0



IMDB : http://www.imdb.com/title/tt7335008


Download Poor Boy 2018 Movies 720p HDRip x264 5.1 ESubs with Sample ☻rDX☻ torrent


Related Torrents


Comments   (please login to add your comment!)

13 reasons why     mff     karlee grey bookworms     babe 2016     wilfred s01     sunderland     of dream     sex study     enigma best     frolicme give     the game 1080p     jenny manson     dirtywivesclub 17 03 01 kagney linn karter     hunter hunter     premature     hugo cabret ita     alps     happy phirr bhag jayegi     guardians of the galaxy     joy x265     sonatine     manuel creampies     amethyst     big black ass 7     


Home - Browse Torrents

Made with love by an Extratorrent Fan!