extratorrent - A Fan Made Alternative Login   |   Register
Important Information
Registrations are open now
-------------------------------------

Please click here to register with Extratorrent2 to recieve latest updates, add bookmarks and to post comments.

Friends
Friends

1) ProxyFix

Extratorrent2 > Categories > Movies > 18+ The Only Living Boy In New York 2018 Movies 720p BluRay x264 5.1 with Sample ☻rDX☻ torrent


Browse Movies torrents

18+ The Only Living Boy In New York 2018 Movies 720p BluRay x264 5.1 with Sample ☻rDX☻ torrent


The Only Living Boy in New York (2017)
Name: The Only Living Boy in New York
Released Year: 2017
Runtime: 89 mins
Gener: Drama
Director: Marc Webb
Country: USA
IMDB Rating: 6.3/10
Plot: Adrift in New York City, a recent college graduate's life is upended by his father's mistress.

Download torrent: Download 18+ The Only Living Boy In New York 2018 Movies 720p BluRay x264 5.1 with Sample ☻rDX☻ torrent Magnet link Bookmark Torrent: 18+ The Only Living Boy In New York 2018 Movies 720p BluRay x264 5.1 with Sample ☻rDX☻   18+ The Only Living Boy In New York 2018 Movies 720p BluRay x264 5.1 with Sample ☻rDX☻ torrent
Info hash: EE6F5C0C6F9010531EF9034204081A6E1DDBADCB
Category: Categories > Movies
Trackers:
View all torrent trackers >
Health:
 seeds: 15 ,  leechers: 5 |  Update >
Torrent language: English English
Total Size: 874.7 MB
Files List:
2    View torrent files >
Uploader:
nehalpuja
Torrent added: August 24, 2018, 4:09 pm
IMDB: http://www.imdb.com/title/tt0460890
Users rating: ---, not rated. please login to rate.

Download 18+ The Only Living Boy In New York 2018 Movies 720p BluRay x264 5.1 with Sample ☻rDX☻ torrent



Torrent Description

18+ The Only Living Boy In New York 2018 Movies 720p BluRay x264 5.1 with Sample ☻rDX☻
===============================================================================================

SCREEN SHOTS:



or

http://iphonehosting.eu/2018/8/donate/1.html

File size                                : 865 MiB
Duration                                 : 1 h 28 min
Overall bit rate                         : 1 368 kb/s
Movie name                               : 18+ The Only Living Boy In New York 2018 Movies 720p BluRay x264 5.1 ☻rDX☻

Video
ID                                       : 2
Format                                   : AVC
Format/Info                              : Advanced Video Codec
Format profile                           :
Format settings, CABAC                   : Yes
Format settings, ReFrames                : 4 frames
Codec ID                                 : V_MPEG4/ISO/AVC
Duration                                 : 1 h 28 min
Bit rate                                 : 920 kb/s
Width                                    : 1 280 pixels
Height                                   : 692 pixels
Display aspect ratio                     : 1.85:1
Frame rate mode                          : Constant
Frame rate                               : 23.976 (24000/1001) FPS
Color space                              : YUV
Chroma subsampling                       : 4:2:0
Bit depth                                : 8 bits
Scan type                                : Progressive
Bits/(Pixel*Frame)                       : 0.043
Stream size                              : 565 MiB (65%)
Title                                    : ☻rDX☻
Writing library                          : x264

Audio
ID                                       : 1
Format                                   : AC-3
Format/Info                              : Audio Coding 3
Mode extension                           : CM (complete main)
Format settings, Endianness              : Big
Codec ID                                 : A_AC3
Duration                                 : 1 h 28 min
Bit rate mode                            : Constant
Bit rate                                 : 448 kb/s
Channel(s)                               : 6 channels
Channel positions                        : Front: L C R, Side: L R, LFE
Sampling rate                            : 48.0 kHz
Frame rate                               : 31.250 FPS (1536 spf)
Bit depth                                : 16 bits
Compression mode                         : Lossy
Delay relative to video                  : -21 ms
Stream size                              : 283 MiB (33%)
Title                                    : ☻rDX☻
Default                                  : Yes
Forced                                   : No



IMDB                                     : http://www.imdb.com/title/tt0460890


Download 18+ The Only Living Boy In New York 2018 Movies 720p BluRay x264 5.1 with Sample ☻rDX☻ torrent


Related Torrents


Comments   (please login to add your comment!)


Home - Browse Torrents

Made with love by an Extratorrent Fan!