extratorrent - A Fan Made Alternative Login   |   Register
Important Information
Registrations are open now
-------------------------------------

Please click here to register with Extratorrent2 to recieve latest updates, add bookmarks and to post comments.

Friends
Friends

1) ProxyFix

Extratorrent2 > Categories > Movies > Kaala (2018) 720p Hindi (Cleaned) HDRip x264 AAC ESub by Full4movies torrent


Browse Movies torrents

Kaala (2018) 720p Hindi (Cleaned) HDRip x264 AAC ESub by Full4movies torrent


Download torrent: Download Kaala (2018) 720p Hindi (Cleaned) HDRip x264 AAC ESub by Full4movies torrent Magnet link Bookmark Torrent: Kaala (2018) 720p Hindi (Cleaned) HDRip x264 AAC ESub by Full4movies   Kaala (2018) 720p Hindi (Cleaned) HDRip x264 AAC ESub by Full4movies torrent
Info hash: FC97DF9EBD24FBB89AD398A265D1B4BD11F4CDCF
Category: Categories > Movies
Trackers:
View all torrent trackers >
Health:
 seeds: 55 ,  leechers: 118 |  Update >
Torrent language: Hindi Hindi
Total Size: 1.4 GB
Files List:
1    View torrent files >
Uploader:
shmasti
Torrent added: July 28, 2018, 3:32 am
Tags: Action, Crime, Drama
Users rating: ---, not rated. please login to rate.

Download Kaala (2018) 720p Hindi (Cleaned) HDRip x264 AAC ESub by Full4movies torrent



Torrent Description



General
Complete name : Kaala (2018) 720p Hindi (Cleaned) HDRip x264 AAC ESub by Full4movies.mkv
Format : Matroska
Format version : Version 4 / Version 2
File size : 1.37 GiB
Duration : 2 h 38 min
Overall bit rate : 1 241 kb/s
Encoded date : UTC 2018-07-27 19:17:29
Writing application : mkvmerge v8.1.0 ('Psychedelic Postcard') 32bit
Writing library : libebml v1.3.1 + libmatroska v1.4.2

Video
ID : 1
Format : AVC
Format/Info : Advanced Video Codec
Format profile :
Format settings, CABAC : Yes
Format settings, RefFrames : 4 frames
Codec ID : V_MPEG4/ISO/AVC
Duration : 2 h 38 min
Bit rate : 1 168 kb/s
Width : 1 280 pixels
Height : 544 pixels
Display aspect ratio : 2.35:1
Frame rate mode : Constant
Frame rate : 30.000 FPS
Color space : YUV
Chroma subsampling : 4:2:0
Bit depth : 8 bits
Scan type : Progressive
Bits/(Pixel*Frame) : 0.056
Stream size : 1.30 GiB (95%)
Title : www.Full4movies.co
Writing library : x264 core 152 r2851 ba24899
Language : English
Default : Yes
Forced : No

Audio
ID : 2
Format : MPEG Audio
Format version : Version 2
Format profile : Layer 3
Mode : Joint stereo
Mode extension : Intensity Stereo + MS Stereo
Codec ID : A_MPEG/L3
Codec ID/Hint : MP3
Duration : 2 h 38 min
Bit rate mode : Constant
Bit rate : 64.0 kb/s
Channel(s) : 2 channels
Sampling rate : 22.05 kHz
Frame rate : 38.281 FPS (576 SPF)
Compression mode : Lossy
Stream size : 72.2 MiB (5%)
Language : Hindi
Default : Yes
Forced : No

Text
ID : 3
Format : UTF-8
Codec ID : S_TEXT/UTF8
Codec ID/Info : UTF-8 Plain Text
Duration : 2 h 36 min
Bit rate : 71 b/s
Count of elements : 2948
Stream size : 82.0 KiB (0%)
Language : English
Default : No
Forced : No

Screen Shoots


Download Kaala (2018) 720p Hindi (Cleaned) HDRip x264 AAC ESub by Full4movies torrent


Related Torrents


Comments   (please login to add your comment!)


Home - Browse Torrents

Made with love by an Extratorrent Fan!