extratorrent - A Fan Made Alternative Login   |   Register
Important Information
Registrations are open now
-------------------------------------

Please click here to register with Extratorrent2 to recieve latest updates, add bookmarks and to post comments.

Friends
Friends

1) ProxyFix

Extratorrent2 > Categories > Movies > 18+ Kept Boy 2018 UNCENSORED Movies HDRip x264 5.1 with Sample ☻rDX☻ torrent


Browse Movies torrents

18+ Kept Boy 2018 UNCENSORED Movies HDRip x264 5.1 with Sample ☻rDX☻ torrent


Download torrent: Download 18+ Kept Boy 2018 UNCENSORED Movies HDRip x264 5.1 with Sample ☻rDX☻ torrent Magnet link Bookmark Torrent: 18+ Kept Boy 2018 UNCENSORED Movies HDRip x264 5.1 with Sample ☻rDX☻   18+ Kept Boy 2018 UNCENSORED Movies HDRip x264 5.1 with Sample ☻rDX☻ torrent
Info hash: FE2E2F19592310BFAA0E78C38A1FEDA982C3F700
Category: Categories > Movies
Trackers:
View all torrent trackers >
Health:
 seeds: 5 ,  leechers: 5 |  Update >
Torrent language: English English
Total Size: 848.3 MB
Files List:
2    View torrent files >
Uploader:
nehalpuja
Torrent added: August 24, 2018, 4:22 am
IMDB: http://www.imdb.com/title/tt4765862
Users rating: ---, not rated. please login to rate.

Download 18+ Kept Boy 2018 UNCENSORED Movies HDRip x264 5.1 with Sample ☻rDX☻ torrent



Torrent Description

18+ Kept Boy 2018 UNCENSORED Movies HDRip x264 5.1 with Sample ☻rDX☻
===============================================================================================

SCREEN SHOTS:



or

http://iphonehosting.eu/2018/8/atm/1.html

File size : 839 MiB
Duration : 1 h 29 min
Overall bit rate mode : Constant
Overall bit rate : 1 312 kb/s
Movie name : 18+ Kept Boy 2018 UNCENSORED Movies HDRip x264 5.1 ☻rDX☻

Video
ID : 2
Format : AVC
Format/Info : Advanced Video Codec
Format profile :
Format settings, CABAC : Yes
Format settings, ReFrames : 2 frames
Format settings, GOP : M=1, N=12
Codec ID : V_MPEG4/ISO/AVC
Duration : 1 h 29 min
Bit rate mode : Constant
Bit rate : 1 121 kb/s
Width : 720 pixels
Height : 400 pixels
Display aspect ratio : 16:9
Frame rate mode : Constant
Frame rate : 23.976 FPS
Color space : YUV
Chroma subsampling : 4:2:0
Bit depth : 8 bits
Scan type : Progressive
Bits/(Pixel*Frame) : 0.162
Stream size : 700 MiB (83%)
Title : ☻rDX☻
Default : Yes
Forced : No

Audio
ID : 1
Format : AC-3
Format/Info : Audio Coding 3
Mode extension : CM (complete main)
Format settings, Endianness : Big
Codec ID : A_AC3
Duration : 1 h 29 min
Bit rate mode : Constant
Bit rate : 192 kb/s
Channel(s) : 6 channels
Channel positions : Front: L C R, Side: L R, LFE
Sampling rate : 48.0 kHz
Frame rate : 31.250 FPS (1536 spf)
Bit depth : 16 bits
Compression mode : Lossy
Stream size : 123 MiB (15%)
Title : ☻rDX☻
Default : Yes
Forced : No



IMDB : http://www.imdb.com/title/tt4765862


Download 18+ Kept Boy 2018 UNCENSORED Movies HDRip x264 5.1 with Sample ☻rDX☻ torrent


Related Torrents

Added  Size  Health
Download Magnet link Browse Movies torrent 18+ Kept Boy 2018 UNCENSORED Movies HDRip x264 AAC with Sample ☻rDX☻ in Movies - HD, by
nehalpuja
1m 705.8 MB 5 3



Comments   (please login to add your comment!)


Home - Browse Torrents

Made with love by an Extratorrent Fan!