extratorrent - A Fan Made Alternative Login   |   Register
Important Information
Registrations are open now
-------------------------------------

Please click here to register with Extratorrent2 to recieve latest updates, add bookmarks and to post comments.

Friends
Friends

1) ProxyFix

Extratorrent2 > Categories > Movies > Kaala (2018) Hindi (Cleaned) HDRip x264 AAC by Full4movies torrent


Browse Movies torrents

Kaala (2018) Hindi (Cleaned) HDRip x264 AAC by Full4movies torrent


Download torrent: Download Kaala (2018) Hindi (Cleaned) HDRip x264 AAC by Full4movies torrent Magnet link Bookmark Torrent: Kaala (2018) Hindi (Cleaned) HDRip x264 AAC by Full4movies   Kaala (2018) Hindi (Cleaned) HDRip x264 AAC by Full4movies torrent
Info hash: 006965EA3C2C8E2FF2BB43D71E70F57CCBFA3E3D
Category: Categories > Movies
Trackers:
View all torrent trackers >
Health:
 seeds: 21 ,  leechers: 14 |  Update >
Torrent language: Hindi Hindi
Total Size: 682.9 MB
Files List:
1    View torrent files >
Uploader:
shmasti
Torrent added: July 28, 2018, 12:33 am
Tags: Action, Crime, Drama
Users rating: ---, not rated. please login to rate.

Download Kaala (2018) Hindi (Cleaned) HDRip x264 AAC by Full4movies torrent



Torrent Description



General
Complete name : Kaala (2018) Hindi (Cleaned) HDRip x264 AAC by Full4movies.mkv
Format : Matroska
Format version : Version 4 / Version 2
File size : 683 MiB
Duration : 2 h 38 min
Overall bit rate : 602 kb/s
Encoded date : UTC 2018-07-27 17:01:34
Writing application : mkvmerge v8.1.0 ('Psychedelic Postcard') 32bit
Writing library : libebml v1.3.1 + libmatroska v1.4.2

Video
ID : 1
Format : AVC
Format/Info : Advanced Video Codec
Format profile :
Format settings, CABAC : Yes
Format settings, RefFrames : 5 frames
Codec ID : V_MPEG4/ISO/AVC
Duration : 2 h 38 min
Bit rate : 534 kb/s
Width : 640 pixels
Height : 272 pixels
Display aspect ratio : 2.35:1
Frame rate mode : Variable
Frame rate : 30.000 FPS
Color space : YUV
Chroma subsampling : 4:2:0
Bit depth : 8 bits
Scan type : Progressive
Bits/(Pixel*Frame) : 0.102
Stream size : 609 MiB (89%)
Writing library : x264 core 148 r2744 b97ae06
Language : English
Default : Yes
Forced : No

Audio
ID : 2
Format : AAC
Format/Info : Advanced Audio Codec
Format profile : LC
Codec ID : A_AAC
Duration : 2 h 38 min
Bit rate : 62.3 kb/s
Channel(s) : 2 channels
Channel positions : Front: L R
Sampling rate : 22.05 kHz
Frame rate : 21.533 FPS (1024 SPF)
Compression mode : Lossy
Delay relative to video : -46 ms
Stream size : 70.7 MiB (10%)
Language : Hindi
Default : Yes
Forced : No

Screen Shoots


Download Kaala (2018) Hindi (Cleaned) HDRip x264 AAC by Full4movies torrent


Related Torrents


Comments   (please login to add your comment!)


Home - Browse Torrents

Made with love by an Extratorrent Fan!