extratorrent - A Fan Made Alternative Login   |   Register
Important Information
Registrations are open now
-------------------------------------

Please click here to register with Extratorrent2 to recieve latest updates, add bookmarks and to post comments.

Friends
Friends

1) ProxyFix

Extratorrent2 > Categories > TV > Game of Thrones S01E08 720p - BDRip - x264 - Dual Auds - [Hindi + Eng] - ESub - MovCr torrent


Browse TV torrents

Game of Thrones S01E08 720p - BDRip - x264 - Dual Auds - [Hindi + Eng] - ESub - MovCr torrent


Download torrent: Download Game of Thrones S01E08 720p - BDRip - x264 - Dual Auds - [Hindi + Eng] - ESub - MovCr torrent Magnet link Bookmark Torrent: Game of Thrones S01E08 720p - BDRip - x264 - Dual Auds - [Hindi + Eng] - ESub - MovCr   Game of Thrones S01E08 720p - BDRip - x264 - Dual Auds - [Hindi + Eng] - ESub - MovCr torrent
Info hash: CD413F985C271159FA60A429B0D37C5797507F02
Category: Categories > TV
Trackers:
View all torrent trackers >
Health:
 seeds: 18 ,  leechers: 9 |  Update >
Torrent language: English English
Total Size: 529.5 MB
Files List:
1    View torrent files >
Uploader:
MovCr
Torrent added: July 7, 2018, 3:39 pm
Users rating: ---, not rated. please login to rate.

Download Game of Thrones S01E08 720p - BDRip - x264 - Dual Auds - [Hindi + Eng] - ESub - MovCr torrent



Torrent Description

http://movcr.com


Game of Thrones S01E08 720p - BDRip - x264 - Dual Auds - [Hindi + Eng] - ESub - MovCr


Video
ID                          : 1
Format                      : AVC
Format/Info                 : Advanced Video Codec
Format profile              :
Format settings             : CABAC / 5 Ref Frames
Format settings, CABAC      : Yes
Format settings, ReFrames   : 5 frames
Codec ID                    : V_MPEG4/ISO/AVC
Duration                    : 58 min 8 s
Bit rate                    : 1 015 kb/s
Width                       : 1 280 pixels
Height                      : 720 pixels
Display aspect ratio        : 16:9
Frame rate mode             : Constant
Frame rate                  : 23.976 (24000/1001) FPS
Color space                 : YUV
Chroma subsampling          : 4:2:0
Bit depth                   : 8 bits
Scan type                   : Progressive
Bits/(Pixel*Frame)          : 0.046
Stream size                 : 422 MiB (80%)
Title                       : www.MovCr.com
Writing library             : x264 core 133 r2334 a3ac64b
Encoding settings           : cabac=1 / ref=5 / deblock=1:-1:-1 / analyse=0x3:0x113 / me=umh / subme=7 / psy=1 / psy_rd=1.00:0.00 / mixed_ref=1 / me_range=16 / chroma_me=1 / trellis=2 / 8x8dct=1 / cqm=0 / deadzone=21,11 / fast_pskip=1 / chroma_qp_offset=-2 / threads=24 / lookahead_threads=4 / sliced_threads=0 / nr=0 / decimate=1 / interlaced=0 / bluray_compat=0 / constrained_intra=0 / bframes=3 / b_pyramid=0 / b_adapt=1 / b_bias=0 / direct=3 / weightb=1 / open_gop=0 / weightp=2 / keyint=240 / keyint_min=23 / scenecut=40 / intra_refresh=0 / rc_lookahead=40 / rc=2pass / mbtree=1 / bitrate=1015 / ratetol=1.0 / qcomp=0.60 / qpmin=10 / qpmax=51 / qpstep=4 / cplxblur=20.0 / qblur=0.5 / vbv_maxrate=20000 / vbv_bufsize=25000 / nal_hrd=none / ip_ratio=1.40 / aq=1:1.00
Language                    : English
Default                     : Yes
Forced                      : No

Audio #1
ID                          : 2
Format                      : AC-3
Format/Info                 : Audio Coding 3
Codec ID                    : A_AC3
Duration                    : 58 min 8 s
Bit rate mode               : Constant
Bit rate                    : 192 kb/s
Channel(s)                  : 6 channels
Channel positions           : Front: L C R, Side: L R, LFE
Sampling rate               : 48.0 kHz
Frame rate                  : 31.250 FPS (1536 SPF)
Bit depth                   : 16 bits
Compression mode            : Lossy
Stream size                 : 79.8 MiB (15%)
Title                       : www.MovCr.com
Language                    : Hindi
Service kind                : Complete Main
Default                     : Yes
Forced                      : No

Audio #2
ID                          : 3
Format                      : AAC
Format/Info                 : Advanced Audio Codec
Format profile              : HE-AAC / LC
Format settings             : Explicit
Codec ID                    : A_AAC-2
Duration                    : 58 min 8 s
Bit rate                    : 63.9 kb/s
Channel(s)                  : 2 channels
Channel positions           : Front: L R
Sampling rate               : 48.0 kHz / 24.0 kHz
Frame rate                  : 23.438 FPS (1024 SPF)
Compression mode            : Lossy
Delay relative to video     : 31 ms
Stream size                 : 26.6 MiB (5%)
Title                       : www.MovCr.com
Language                    : English
Default                     : No
Forced                      : No

Text
ID                          : 4
Format                      : ASS
Codec ID                    : S_TEXT/ASS
Codec ID/Info               : Advanced Sub Station Alpha
Bit rate                    : 0 b/s
Count of elements           : 0
Compression mode            : Lossless
Stream size                 : 0.00 Byte (0%)
Title                       : www.MovCr.com
Language                    : English
Default                     : Yes
Forced                      : Yes







Download Game of Thrones S01E08 720p - BDRip - x264 - Dual Auds - [Hindi + Eng] - ESub - MovCr torrent


Related Torrents


Comments   (please login to add your comment!)

sofi ryan     faa 164     go fuck your selfie skyla novea     adria rae ashley anderson     next 720p     1937 dual audio     2017 dual audio hdrip     spectre 2015 hindi     djuliana     hell     193     sensation     valentina nappi 2015     alina lopez vixen     alpha jasinda     natalie dormer     720p dr star     parts     blondie fesser mp4     dd ac3     saotome yui     hindi dvd 2018     ankush 1986     s06e09     


Home - Browse Torrents

Made with love by an Extratorrent Fan!