extratorrent - A Fan Made Alternative Login   |   Register
Important Information
Registrations are open now
-------------------------------------

Please click here to register with Extratorrent2 to recieve latest updates, add bookmarks and to post comments.

Friends
Friends

1) ProxyFix

Extratorrent2 > Categories > Movies > Mommys Little Boy 2018 Movies HDRip x264 5.1 with Sample ☻rDX☻ torrent


Browse Movies torrents

Mommys Little Boy 2018 Movies HDRip x264 5.1 with Sample ☻rDX☻ torrent


Mommy's Little Boy (2017)
Name: Mommy's Little Boy
Released Year: 2017
Runtime: 88 mins
Gener: Thriller
Director: Curtis Crawford
Country: Canada
IMDB Rating: 6.1/10
Plot: A young boy takes a stand when his mother's grief threatens to destroy both of their lives.

Download torrent: Download Mommys Little Boy 2018 Movies HDRip x264 5.1 with Sample ☻rDX☻ torrent Magnet link Bookmark Torrent: Mommys Little Boy 2018 Movies HDRip x264 5.1 with Sample ☻rDX☻   Mommys Little Boy 2018 Movies HDRip x264 5.1 with Sample ☻rDX☻ torrent
Info hash: 45DA3EDC634CB35915617003412F85584DDD5EEF
Category: Categories > Movies
Trackers:
View all torrent trackers >
Health:
 seeds: 3 ,  leechers: 9 |  Update >
Torrent language: English English
Total Size: 847.7 MB
Files List:
2    View torrent files >
Uploader:
nehalpuja
Torrent added: August 24, 2018, 3:34 pm
IMDB: http://www.imdb.com/title/tt5769006
Users rating: ---, not rated. please login to rate.

Download Mommys Little Boy 2018 Movies HDRip x264 5.1 with Sample ☻rDX☻ torrent



Torrent Description

Mommys Little Boy 2018 Movies HDRip x264 5.1 with Sample ☻rDX☻
===============================================================================================

SCREEN SHOTS:



or

http://iphonehosting.eu/2018/8/browsing/1.html

File size : 840 MiB
Duration : 1 h 28 min
Overall bit rate mode : Constant
Overall bit rate : 1 328 kb/s
Movie name : Mommys Little Boy 2018 Movies HDRip x264 5.1 ☻rDX☻

Video
ID : 2
Format : AVC
Format/Info : Advanced Video Codec
Format profile :
Format settings, CABAC : Yes
Format settings, ReFrames : 2 frames
Format settings, GOP : M=1, N=12
Codec ID : V_MPEG4/ISO/AVC
Duration : 1 h 28 min
Bit rate mode : Constant
Bit rate : 1 137 kb/s
Width : 720 pixels
Height : 400 pixels
Display aspect ratio : 16:9
Frame rate mode : Constant
Frame rate : 23.976 FPS
Color space : YUV
Chroma subsampling : 4:2:0
Bit depth : 8 bits
Scan type : Progressive
Bits/(Pixel*Frame) : 0.165
Stream size : 702 MiB (84%)
Title : ☻rDX☻
Default : Yes
Forced : No

Audio
ID : 1
Format : AC-3
Format/Info : Audio Coding 3
Mode extension : CM (complete main)
Format settings, Endianness : Big
Codec ID : A_AC3
Duration : 1 h 28 min
Bit rate mode : Constant
Bit rate : 192 kb/s
Channel(s) : 6 channels
Channel positions : Front: L C R, Side: L R, LFE
Sampling rate : 48.0 kHz
Frame rate : 31.250 FPS (1536 spf)
Bit depth : 16 bits
Compression mode : Lossy
Stream size : 121 MiB (14%)
Title : ☻rDX☻
Default : Yes
Forced : No



IMDB : http://www.imdb.com/title/tt5769006


Download Mommys Little Boy 2018 Movies HDRip x264 5.1 with Sample ☻rDX☻ torrent


Related Torrents


Comments   (please login to add your comment!)


Home - Browse Torrents

Made with love by an Extratorrent Fan!