extratorrent - A Fan Made Alternative Login   |   Register
Important Information
Registrations are open now
-------------------------------------

Please click here to register with Extratorrent2 to recieve latest updates, add bookmarks and to post comments.

Friends
Friends

1) ProxyFix

Extratorrent2 > Categories > Movies > If.I.Stay.2014.PL.DUAL.1080p.BluRay.x264-FLAME[PRiME] torrent


Browse Movies torrents

If.I.Stay.2014.PL.DUAL.1080p.BluRay.x264-FLAME[PRiME] torrent


If I Stay (2014)
Name: If I Stay
Released Year: 2014
Runtime: 107 mins
Gener: Drama, Fantasy, Music
Director: R.J. Cutler
Country: USA
IMDB Rating: 6.8/10
Plot: Life changes in an instant for young Mia Hall after a car accident puts her in a coma. During an out-of-body experience, she must decide whether to wake up and live a life far different than she had imagined. The choice is hers if she can go on.

Download torrent: Download If.I.Stay.2014.PL.DUAL.1080p.BluRay.x264-FLAME[PRiME] torrent Magnet link Bookmark Torrent: If.I.Stay.2014.PL.DUAL.1080p.BluRay.x264-FLAME[PRiME]   If.I.Stay.2014.PL.DUAL.1080p.BluRay.x264-FLAME[PRiME] torrent
Info hash: 53CBC494E94F967E884E56E8D5A7C7CDA6B80236
Category: Categories > Movies
Trackers:
View all torrent trackers >
Health:
 seeds: 0 ,  leechers: 3 |  Update >
Torrent language: English English
Total Size: 8.7 GB
Files List:
5    View torrent files >
Uploader:
showstopper
Torrent added: February 22, 2017, 2:33 pm
IMDB: http://www.imdb.com/title/tt1355630
Users rating: ---, not rated. please login to rate.

Download If.I.Stay.2014.PL.DUAL.1080p.BluRay.x264-FLAME[PRiME] torrent



Torrent Description


If.I.Stay.2014.PL.DUAL.1080p.BluRay.x264-FLAME[PRiME]

ImDb: http://www.imdb.com/title/tt1355630



Complete name : flame-if.i.stay.2014.pl.dual.1080p.bluray.x264[PRiME].mkv
Format : Matroska
Format version : Version 4 / Version 2
File size : 8.75 GiB
Duration : 1 h 46 min
Overall bit rate : 11.7 Mb/s
Encoded date : UTC 2017-01-23 18:14:10
Writing application : mkvmerge v9.7.1 ('Pandemonium') 64bit
Writing library : libebml v1.3.4 + libmatroska v1.4.5

Video
ID : 1
Format : AVC
Format/Info : Advanced Video Codec
Format profile :
Format settings, CABAC : Yes
Format settings, ReFrames : 5 frames
Codec ID : V_MPEG4/ISO/AVC
Duration : 1 h 46 min
Bit rate : 9 785 kb/s
Width : 1 920 pixels
Height : 800 pixels
Display aspect ratio : 2.40:1
Frame rate mode : Constant
Frame rate : 23.976 (24000/1001) FPS
Color space : YUV
Chroma subsampling : 4:2:0
Bit depth : 8 bits
Scan type : Progressive
Bits/(Pixel*Frame) : 0.266
Stream size : 7.29 GiB (83%)
Writing library : x264 core 148 r2744 b97ae06
Encoding settings : cabac=1 / ref=5 / deblock=1:-2:-2 / analyse=0x3:0x133 / me=umh / subme=9 / psy=1 / psy_rd=1.00:0.00 / mixed_ref=1 / me_range=16 / chroma_me=1 / trellis=2 / 8x8dct=1 / cqm=0 / deadzone=21,11 / fast_pskip=0 / chroma_qp_offset=-2 / threads=12 / lookahead_threads=1 / sliced_threads=0 / nr=0 / decimate=1 / interlaced=0 / bluray_compat=0 / constrained_intra=0 / bframes=3 / b_pyramid=2 / b_adapt=2 / b_bias=0 / direct=3 / weightb=1 / open_gop=0 / weightp=2 / keyint=250 / keyint_min=23 / scenecut=40 / intra_refresh=0 / rc_lookahead=60 / rc=2pass / mbtree=1 / bitrate=9785 / ratetol=1.0 / qcomp=0.60 / qpmin=10 / qpmax=69 / qpstep=4 / cplxblur=20.0 / qblur=0.5 / ip_ratio=1.40 / aq=1:0.70
Language : English
Default : Yes
Forced : No

Audio #1
ID : 2
Format : AC-3
Format/Info : Audio Coding 3
Mode extension : CM (complete main)
Format settings, Endianness : Big
Codec ID : A_AC3
Duration : 1 h 46 min
Bit rate mode : Constant
Bit rate : 448 kb/s
Channel(s) : 6 channels
Channel positions : Front: L C R, Side: L R, LFE
Sampling rate : 48.0 kHz
Frame rate : 31.250 FPS (1536 spf)
Compression mode : Lossy
Stream size : 342 MiB (4%)
Title : Polish AC3 448 kbps
Language : Polish
Default : Yes
Forced : No

Audio #2
ID : 3
Format : DTS
Format/Info : Digital Theater Systems
Mode : 16
Format settings, Endianness : Big
Codec ID : A_DTS
Duration : 1 h 46 min
Bit rate mode : Constant
Bit rate : 1 509 kb/s
Channel(s) : 6 channels
Channel positions : Front: L C R, Side: L R, LFE
Sampling rate : 48.0 kHz
Frame rate : 93.750 FPS (512 spf)
Bit depth : 24 bits
Compression mode : Lossy
Stream size : 1.12 GiB (13%)
Title : English DTS 1509 kbps
Language : English
Default : No
Forced : No

Text #1
ID : 4
Format : UTF-8
Codec ID : S_TEXT/UTF8
Codec ID/Info : UTF-8 Plain Text
Duration : 1 h 45 min
Bit rate : 41 b/s
Count of elements : 1255
Stream size : 31.9 KiB (0%)
Language : Polish
Default : No
Forced : No

Text #2
ID : 5
Format : UTF-8
Codec ID : S_TEXT/UTF8
Codec ID/Info : UTF-8 Plain Text
Duration : 1 h 39 min
Bit rate : 58 b/s
Count of elements : 1381
Stream size : 42.5 KiB (0%)
Language : English
Default : No
Forced : No

Menu
00:00:00.000 : :
00:03:20.366 : :
00:07:23.901 : :
00:11:31.606 : :
00:14:43.716 : :
00:19:12.483 : :
00:23:19.605 : :
00:25:19.267 : :
00:27:26.435 : :
00:30:46.009 : :
00:32:11.596 : :
00:34:38.367 : :
00:37:21.905 : :
00:40:41.188 : :
00:44:02.222 : :
00:46:58.898 : :
00:49:07.818 : :
00:52:06.331 : :
00:55:42.755 : :
00:59:01.579 : :
01:00:42.347 : :
01:05:39.309 : :
01:10:10.038 : :
01:13:48.923 : :
01:16:18.407 : :
01:18:54.729 : :
01:24:05.414 : :
01:27:44.466 : :
01:29:50.176 : :
01:33:37.028 : :
01:38:16.306 : :
01:40:25.351 : :
01:46:39.975 : :




Click Image To View Full Size


Click To View Screenshot
Click To View Screenshot
Click To View Screenshot


Download If.I.Stay.2014.PL.DUAL.1080p.BluRay.x264-FLAME[PRiME] torrent


Related Torrents


Comments   (please login to add your comment!)

implants     bible     brazzers boobs     alpha and omega dual     ssni 002     nlp     first anal tushy split     the computer 2017     ts angel     1080p hevc season     herge     drink     big wet asses kelly devine     povlife     malena     harley dean jezabel     rocco milf     720p hevc 1945     lost in     savita bhabhi     scandal us s02e10     1998     jamesdeen 17 11 30 kelsi lynn     the t     


Home - Browse Torrents

Made with love by an Extratorrent Fan!